Central Intelligence 2016 UNRATED 2160p 4K UHD BluRay HEVC 10bit DTS-HD 5.1

Producer: Rawson Marshall Thurber
Cast:Dwayne Johnson, Kevin Hart, Amy Ryan Amy, Danielle Nicolet, Jason Bateman, Aaron Paul, Ryan Hansen, Tim Griffin, Timothy John, Sione Kelepi, Dylan Boyack, Thomas Kretschmann, Megan Park, Slaine, Annie Kerins...
IMDB 6.30
File Size 52.35 GB
Film description
From husk in social network to saving the world - one step. Today you are a friend of a former classmate, and tomorrow - he drags you under bullets. Who knew that an avid donut lover would turn into a super-spy like a rock.

A film that people are changing. A school loser can turn into a steep pepper, and a tough guy from a football team can become an ordinary clerk. No matter who, you were at school and what people thought about you. You can change your name, move to another city, plow like a horse and succeed. And you can stay and think that since you are a school star, you are now automatically provided with vital benefits. Nobody cares. Because the adult life puts everything in its place. As in this film.

2160p 4K UltraHD BluRay Rip
HEVC 10 Bits BT709

English DTSHD-MA 5.1 Audio

French Subs


Source : 4K UHD BluRay
Format : Matroska
File size : 52.4 GiB
Duration : 1 h 56 min
Overall bit rate : 64.4 Mb/s

Video
Format : HEVC
Format profile : Main 10@L5@Main
Bit rate : 60.7 Mb/s
Width : 3 840 pixels
Height : 2 160 pixels
Display aspect ratio : 16:9
Frame rate : 23.976 (24000/1001) FPS
Bit depth : 10 bits
Stream size : 49.3 GiB (94%)
Color primaries : BT.709

Audio #1
Format : DTS MA / Core
Bit rate : 3 694 kb/s / 1 509 kb/s
Channel(s) : 6 channels
Stream size : 3.00 GiB (6%)
Language : English

Chapters : YES

CENTRAL.INTELLIGENCE.2016.UNRATED.2160P.BLURAY.REMUX.HEVC.DTS-HD.MA.5.1.MKV

File Size: 44.05

Download Link: http://takefile.link/kuyp1nmxqpdp/Central.Intelligence.2016.UNRATED.2160p.BluRay.REMUX.HEVC.DTS-HD.MA.5.1.mkv.html

CENTRAL_INTELLIGENCE_2016_UNRATED_2160P_4K_UHD_BLURAY_HEVC_10BIT_DTS-HD_5.1.MKV

Screenshots of the movie:









File size: 52.35 GB


download 4k movies

Watch the movie trailer Central Intelligence 2016 UNRATED 2160p 4K UHD BluRay HEVC 10bit DTS-HD 5.1
Watch the movie trailer
Comments
  • bowtiesmilelaughingblushsmileyrelaxedsmirk
    heart_eyeskissing_heartkissing_closed_eyesflushedrelievedsatisfiedgrin
    winkstuck_out_tongue_winking_eyestuck_out_tongue_closed_eyesgrinningkissingstuck_out_tonguesleeping
    worriedfrowninganguishedopen_mouthgrimacingconfusedhushed
    expressionlessunamusedsweat_smilesweatdisappointed_relievedwearypensive
    disappointedconfoundedfearfulcold_sweatperseverecrysob
    joyastonishedscreamtired_faceangryragetriumph
    sleepyyummasksunglassesdizzy_faceimpsmiling_imp
    neutral_faceno_mouthinnocent